<?xml version="1.0" standalone="no"?>
<!DOCTYPE svg PUBLIC "-//W3C//DTD SVG 1.1//EN" "http://www.w3.org/Graphics/SVG/1.1/DTD/svg11.dtd" >
<svg xmlns="http://www.w3.org/2000/svg">
<metadata></metadata>
<defs>
<font id="pf_din_text_comp_promedium" horiz-adv-x="829" >
<font-face units-per-em="2048" ascent="1536" descent="-512" />
<missing-glyph horiz-adv-x="419" />
<glyph horiz-adv-x="0" />
<glyph horiz-adv-x="682" />
<glyph unicode=" "  horiz-adv-x="419" />
<glyph unicode="&#x09;" horiz-adv-x="419" />
<glyph unicode="&#xa0;" horiz-adv-x="419" />
<glyph unicode="!" horiz-adv-x="516" d="M147 1425h220l-17 -1036h-184zM152 0v223h213v-223h-213z" />
<glyph unicode="&#x22;" horiz-adv-x="573" d="M80 1004v421h156v-421h-156zM340 1004v421h158v-421h-158z" />
<glyph unicode="#" d="M10 442v152h144l47 256h-115v151h141l78 429h156l-80 -429h162l78 429h153l-80 -429h119v-151h-145l-45 -256h118v-152h-147l-80 -442h-154l80 442h-161l-78 -442h-156l82 442h-117zM307 594h162l47 256h-162z" />
<glyph unicode="$" d="M63 334l222 43q2 -66 22.5 -115t73.5 -61v436q-100 43 -160.5 87t-93.5 93t-43 105.5t-10 124.5q0 160 73.5 266t233.5 123v149h76v-147q90 -4 150.5 -37t96 -82t50 -106.5t14.5 -110.5l-217 -51q0 68 -20.5 114.5t-73.5 57.5v-379q100 -45 161.5 -88t95.5 -93.5 t44 -112.5t10 -144q0 -90 -15.5 -165t-52 -129.5t-96 -86t-147.5 -35.5v-170h-76v170q-84 4 -144.5 32.5t-98.5 74.5t-56.5 106.5t-18.5 130.5zM293 1049q0 -53 13 -91t75 -75v338q-55 -16 -71.5 -68.5t-16.5 -103.5zM457 201q33 6 51 25.5t27.5 47t12.5 60t3 69.5 q0 82 -18.5 122t-75.5 75v-399z" />
<glyph unicode="%" horiz-adv-x="1290" d="M55 754v493q0 90 62.5 139.5t148.5 49.5q90 0 150.5 -49.5t60.5 -139.5v-493q0 -90 -61.5 -138.5t-149.5 -48.5t-149.5 48.5t-61.5 138.5zM213 762q0 -18 13.5 -33.5t39.5 -15.5q23 0 36 15t13 34v477q0 18 -13 33.5t-38 15.5t-38 -15.5t-13 -33.5v-477zM254 -35 l643 1497h135l-643 -1497h-135zM811 180v494q0 90 62.5 139t148.5 49q90 0 150.5 -49t60.5 -139v-494q0 -90 -61.5 -138t-149.5 -48t-149.5 48t-61.5 138zM969 188q0 -18 13 -33.5t40 -15.5q23 0 36 15.5t13 33.5v478q0 18 -13.5 33.5t-37.5 15.5q-25 0 -38 -15.5t-13 -33.5 v-478z" />
<glyph unicode="&#x26;" horiz-adv-x="983" d="M84 362q0 123 51 218.5t144 183.5l-37 65q-31 57 -55.5 132t-24.5 155q0 68 20.5 126t58.5 101t92 68t120 25q113 0 192.5 -44t126.5 -149l-182 -92q-18 47 -51 68.5t-72 21.5q-57 0 -78.5 -41t-21.5 -86q0 -47 23.5 -108.5t62.5 -133.5l227 -403q12 37 18.5 82t8.5 94 h192q-2 -92 -25.5 -193.5t-64.5 -181.5l156 -270h-244l-53 92q-63 -66 -133 -85t-144 -19q-68 0 -124 26.5t-97 75.5t-63.5 119t-22.5 153zM291 371q0 -76 35.5 -131.5t101.5 -55.5q41 0 80 19.5t65 50.5l-192 332q-43 -53 -66.5 -104.5t-23.5 -110.5z" />
<glyph unicode="'" horiz-adv-x="380" d="M117 1004v421h157v-421h-157z" />
<glyph unicode="(" horiz-adv-x="518" d="M94 627q0 127 21.5 244.5t59.5 223t88 202t108 180.5l127 -62q-49 -86 -87 -182t-65 -196.5t-41 -203t-14 -198.5q0 -104 14 -211t41 -208t63.5 -196.5t84.5 -177.5l-111 -71q-123 176 -206 390t-83 466z" />
<glyph unicode=")" horiz-adv-x="518" d="M94 1415l125 62q57 -84 107.5 -180.5t88.5 -202t60.5 -223t22.5 -244.5q0 -252 -84 -466t-207 -390l-109 71q45 82 83 177.5t64.5 196.5t41 207.5t14.5 211.5q0 96 -14.5 198.5t-41 203t-65.5 196.5t-86 182z" />
<glyph unicode="*" horiz-adv-x="763" d="M49 1122l49 142l217 -90l-20 249h154l-21 -247l215 88l51 -142l-231 -61l160 -195l-125 -86l-125 209l-129 -211l-123 88l155 195z" />
<glyph unicode="+" d="M29 518v176h299v324h172v-324h299v-176h-299v-321h-172v321h-299z" />
<glyph unicode="," horiz-adv-x="438" d="M98 -281l60 269h-54v258h230v-252l-113 -275h-123z" />
<glyph unicode="-" horiz-adv-x="747" d="M100 479v193h570v-193h-570z" />
<glyph unicode="." horiz-adv-x="432" d="M100 0v248h230v-248h-230z" />
<glyph unicode="/" horiz-adv-x="559" d="M6 -86l381 1571h166l-381 -1571h-166z" />
<glyph unicode="0" d="M109 289v844q0 72 24.5 129t66.5 96t98 59.5t122 20.5q137 0 223 -80t86 -225v-844q0 -72 -24.5 -128.5t-66.5 -95t-98.5 -58t-119.5 -19.5q-66 0 -122 19.5t-98 58t-66.5 95t-24.5 128.5zM326 281q0 -41 26.5 -64.5t67.5 -23.5q39 0 64.5 23.5t25.5 64.5v860 q0 41 -25.5 64.5t-64.5 23.5q-41 0 -67.5 -23.5t-26.5 -64.5v-860z" />
<glyph unicode="1" d="M209 1022v238l207 165h207v-1425h-220v1178z" />
<glyph unicode="2" d="M94 1055q0 182 88 282.5t236 100.5q170 0 243.5 -91.5t73.5 -244.5q2 -94 -19.5 -168t-64.5 -158l-289 -567h359v-209h-615v193q92 174 181.5 347t179.5 347q29 53 36 105t7 110q0 18 -3 40.5t-13.5 41t-28.5 32t-49 13.5q-47 -2 -76 -45t-29 -154z" />
<glyph unicode="3" d="M84 352l219 27q-10 -102 19.5 -143t80.5 -41q37 0 69 25.5t32 94.5v193q0 72 -33 102.5t-92 30.5h-62v188h72q59 0 90 29t31 96v158q0 41 -18.5 78t-71.5 37q-51 0 -81 -42t-30 -141l-217 29q4 166 94 265.5t244 99.5q84 0 141.5 -27t92 -71t50 -100t15.5 -114v-112 q0 -41 -3 -81t-14.5 -75t-35 -64.5t-64.5 -50.5v-10q72 -33 94.5 -95.5t22.5 -139.5l-2 -164q0 -170 -89 -258t-239 -88q-174 0 -249.5 95t-65.5 269z" />
<glyph unicode="4" d="M47 213v186l303 1026h215l-295 -1007h195v323h215v-323h90v-205h-90v-213h-215v213h-418z" />
<glyph unicode="5" d="M96 336l213 35v-29q0 -80 24.5 -113.5t78.5 -33.5q37 0 64.5 24.5t31.5 93.5v338q0 88 -88 88q-33 0 -62.5 -17t-46.5 -58h-184v761h594v-202h-393v-344q2 0 3 -1t5 -1q27 29 68.5 42t80.5 13q131 0 187.5 -73t56.5 -183v-295q0 -203 -78.5 -298t-242.5 -95 q-162 0 -237 92t-75 256z" />
<glyph unicode="6" d="M111 283v182q0 84 9 150.5t32 125.5l262 684h231l-231 -606l8 -8q37 25 90 25q100 0 160.5 -65.5t60.5 -207.5v-250q0 -70 -19.5 -129t-58.5 -103t-98 -68.5t-139 -24.5q-141 0 -224 79.5t-83 215.5zM328 279q0 -41 26.5 -62.5t65.5 -21.5q41 0 67.5 21.5t26.5 62.5v292 q0 41 -26.5 62.5t-65.5 21.5q-47 0 -70.5 -30.5t-23.5 -71.5v-274z" />
<glyph unicode="7" d="M104 1069v356h629v-186l-360 -1239h-217l348 1223h-205v-154h-195z" />
<glyph unicode="8" d="M104 322v102q0 49 3.5 96t14.5 89t33.5 76t61.5 58q-35 14 -56.5 42t-33.5 60t-16.5 63.5t-4.5 54.5v163q0 141 85 226.5t225 85.5q150 0 229.5 -85t79.5 -247v-105q0 -78 -22.5 -147.5t-86.5 -103.5q0 -2 2 -2q39 -25 60.5 -55.5t32 -67.5t13.5 -81t3 -95v-123 q0 -88 -23.5 -151.5t-65.5 -105.5t-98.5 -61.5t-121.5 -19.5q-82 0 -141.5 24.5t-97.5 69.5t-56.5 106.5t-18.5 133.5zM322 281q0 -39 27.5 -63.5t66.5 -24.5q41 0 66.5 24.5t25.5 63.5v270q0 43 -19.5 78t-72.5 35t-73.5 -35t-20.5 -78v-270zM322 920q0 -39 27.5 -62.5 t66.5 -23.5q41 0 66.5 23.5t25.5 62.5v204q0 45 -21.5 76t-70.5 31q-37 0 -65.5 -23.5t-28.5 -62.5v-225z" />
<glyph unicode="9" d="M104 864v248q0 70 19.5 129t58.5 103.5t98.5 69t141.5 24.5q152 0 229.5 -80t77.5 -215v-182q0 -162 -41 -277l-262 -684h-233l231 606l-8 8q-37 -25 -90 -24q-100 0 -161 60.5t-61 213.5zM324 854q0 -41 26.5 -63.5t67.5 -22.5q47 0 69.5 31.5t22.5 72.5v275 q0 41 -25.5 62.5t-66.5 21.5q-39 0 -66.5 -21.5t-27.5 -62.5v-293z" />
<glyph unicode=":" horiz-adv-x="432" d="M100 0v248h230v-248h-230zM100 571v248h230v-248h-230z" />
<glyph unicode=";" horiz-adv-x="438" d="M98 -281l60 269h-54v258h230v-252l-113 -275h-123zM104 571v248h230v-248h-230z" />
<glyph unicode="&#x3c;" d="M31 537v147l766 383v-203l-555 -254l553 -252v-204z" />
<glyph unicode="=" d="M29 352v178h770v-178h-770zM29 692v178h770v-178h-770z" />
<glyph unicode="&#x3e;" d="M33 864v203l766 -383v-147l-762 -383v204l551 252z" />
<glyph unicode="?" horiz-adv-x="806" d="M63 1073q4 182 100.5 273.5t250.5 91.5q180 0 261 -94.5t81 -270.5q0 -53 -4 -92t-13.5 -70.5t-24 -61.5t-34.5 -67l-98 -172q-16 -27 -25.5 -55.5t-9.5 -69.5v-108h-217v164q0 45 14 85t37 76q49 82 78.5 132.5t45 87t19.5 68.5t4 79q0 23 -6 50.5t-19.5 51t-37 40 t-59.5 16.5q-49 0 -87 -40t-38 -138zM332 0v223h211v-223h-211z" />
<glyph unicode="@" horiz-adv-x="1601" d="M123 688q0 168 46 309.5t135 243.5t220 160.5t299 58.5q166 0 290 -52t206 -144.5t122 -216t40 -265.5q0 -139 -31 -235t-83 -156.5t-118.5 -87.5t-140.5 -27q-16 0 -42 6.5t-54.5 20.5t-53 36.5t-36.5 53.5h-4q-33 -49 -90.5 -75.5t-118.5 -26.5q-57 0 -95.5 20.5 t-62 54t-32.5 77.5t-9 92q0 49 13.5 96t44 84t77.5 59.5t115 22.5h106v82q0 39 -18.5 60.5t-65.5 21.5q-27 0 -52 -17.5t-36 -62.5l-164 49q27 94 96.5 146t170.5 52q119 0 185.5 -54t66.5 -189v-350q0 -49 25.5 -75t53.5 -26q35 0 68 13.5t59.5 52.5t42 106.5t15.5 175.5 q0 119 -33 215.5t-95.5 165t-152.5 105.5t-203 37q-141 0 -244.5 -49.5t-169 -134.5t-97 -196.5t-31.5 -236.5q0 -147 35.5 -265t103.5 -200t168 -125t229 -43q96 0 174 18.5t172 71.5l66 -143q-94 -45 -194.5 -72.5t-206.5 -27.5q-162 0 -293 48t-224.5 145.5t-143.5 244.5 t-50 348zM690 547q0 -43 22.5 -67.5t65.5 -24.5q41 0 64.5 28.5t23.5 75.5v103h-73q-41 0 -72 -25t-31 -90z" />
<glyph unicode="A" horiz-adv-x="864" d="M23 0q72 358 143.5 712.5t142.5 712.5h246l289 -1425h-226l-55 297h-262q-14 -74 -27.5 -148.5t-25.5 -148.5h-225zM334 504h194l-92 592h-10q-20 -147 -43 -294t-49 -298z" />
<glyph unicode="B" horiz-adv-x="880" d="M106 0v1425h312q188 0 273 -99t85 -288q0 -98 -33.5 -171.5t-117.5 -110.5v-11q94 -31 128.5 -116.5t34.5 -196.5q0 -223 -95 -327.5t-292 -104.5h-295zM328 207h88q53 0 84.5 19.5t49 52t23 78t5.5 94.5q0 100 -37 149t-129 49h-84v-442zM328 850h71q86 0 126 47t40 137 q0 98 -39 141.5t-129 43.5h-69v-369z" />
<glyph unicode="C" horiz-adv-x="831" d="M94 338v711q0 80 17.5 150.5t58.5 123.5t107.5 84t162.5 31q88 0 151.5 -24.5t105.5 -69t61.5 -104.5t19.5 -132l-215 -55q0 78 -29.5 127t-95.5 49q-39 0 -63.5 -16.5t-37.5 -42t-18.5 -55.5t-5.5 -56v-723q0 -20 4.5 -45t17.5 -46.5t36.5 -35.5t60.5 -14q123 0 125 176 q55 -10 110.5 -17.5t110.5 -15.5q-4 -162 -89 -256t-251 -94q-176 0 -260 89t-84 261z" />
<glyph unicode="D" horiz-adv-x="890" d="M106 0v1425h355q127 0 200.5 -44t102.5 -148q23 -76 23.5 -208t0.5 -310q0 -176 -2 -303t-26 -201q-39 -121 -124 -166t-194 -45h-336zM328 209h94q82 0 112.5 43t30.5 125v674q0 78 -29.5 122t-113.5 44h-94v-1008z" />
<glyph unicode="E" horiz-adv-x="778" d="M106 0v1425h633v-208h-411v-388h358v-211h-358v-409h411v-209h-633z" />
<glyph unicode="F" horiz-adv-x="778" d="M106 0v1425h633v-208h-411v-388h358v-211h-358v-618h-222z" />
<glyph unicode="G" horiz-adv-x="874" d="M104 338v711q0 80 18.5 150.5t60.5 123.5t107.5 84t160.5 31q174 0 255.5 -90.5t81.5 -235.5v-16l-215 -43q0 78 -29.5 127t-94.5 49q-39 0 -64 -16.5t-38 -42t-18 -55.5t-5 -56v-723q0 -23 6 -43q6 -37 29.5 -67.5t82.5 -30.5t95 30.5t36 83.5v281h-131v192h351v-454 q0 -168 -95 -254t-249 -86q-176 0 -260.5 89t-84.5 261z" />
<glyph unicode="H" horiz-adv-x="907" d="M106 0v1425h220v-596h256v596h219v-1425h-219v623h-256v-623h-220z" />
<glyph unicode="I" horiz-adv-x="444" d="M111 0v1425h223v-1425h-223z" />
<glyph unicode="J" horiz-adv-x="751" d="M-10 150l164 126q23 -35 60.5 -58t70.5 -23q68 0 97.5 46t29.5 105v1079h221v-1071q0 -176 -88 -271t-258 -95q-92 0 -169 40t-128 122z" />
<glyph unicode="K" horiz-adv-x="880" d="M106 0v1425h220v-575h10l268 575h230q-72 -145 -144 -288.5t-143 -288.5l327 -848h-225l-229 614q-23 -49 -46.5 -99t-47.5 -99v-416h-220z" />
<glyph unicode="L" horiz-adv-x="735" d="M106 0v1425h222v-1216h395v-209h-617z" />
<glyph unicode="M" horiz-adv-x="1173" d="M100 0v1425h213l156 -405l113 -309h10l115 317l153 397h213v-1425h-221v821h-8l-90 -254l-101 -256h-133l-102 264l-88 250h-11v-825h-219z" />
<glyph unicode="N" horiz-adv-x="954" d="M100 0v1425h199l172 -424q20 -53 40.5 -104t43.5 -104l72 -197q4 0 5 1t5 1v827h217v-1425h-195l-172 422q-41 104 -80.5 204.5t-78.5 202.5h-9v-829h-219z" />
<glyph unicode="O" horiz-adv-x="880" d="M94 342v717q0 84 19.5 153.5t60.5 119.5t107.5 78t158.5 28q98 0 165 -26t107 -75t57 -118.5t17 -157.5v-696q0 -186 -84 -281.5t-264 -95.5t-262 91t-82 263zM315 338q0 -55 28 -99t95 -44q68 0 96.5 46t28.5 111v725q0 59 -25.5 106.5t-97.5 47.5q-39 0 -63.5 -17.5 t-37.5 -43t-18.5 -57.5t-5.5 -58v-717z" />
<glyph unicode="P" horiz-adv-x="843" d="M106 0v1425h316q197 0 288 -102t91 -330q0 -100 -18.5 -182t-63.5 -140.5t-118 -91t-183 -32.5h-90v-547h-222zM328 758h78q102 0 142 58t40 175q0 104 -38 165t-140 61h-82v-459z" />
<glyph unicode="Q" horiz-adv-x="880" d="M96 342v717q0 84 19.5 153.5t60.5 119.5t107.5 78t158.5 28q98 0 165 -26t107 -75t57 -118.5t17 -157.5v-696q0 -113 -30 -189l121 -96l-105 -127l-115 92q-39 -33 -95 -45t-122 -12q-180 0 -263 91t-83 263zM317 338q0 -55 28 -100t95 -45q23 0 35 6l-72 59l99 123 l63 -51v712v35t-2 37q-4 51 -32.5 84t-88.5 33q-63 0 -90.5 -42t-32.5 -97q-2 -29 -2 -54.5v-50.5v-649z" />
<glyph unicode="R" horiz-adv-x="880" d="M106 0v1425h326q174 0 272.5 -97t98.5 -316q0 -135 -38 -228.5t-134 -146.5l211 -637h-226l-184 590h-104v-590h-222zM328 799h90q86 0 127 50t41 161q0 98 -40 152.5t-132 54.5h-86v-418z" />
<glyph unicode="S" horiz-adv-x="841" d="M72 334l219 43q4 -80 30.5 -130t104.5 -50q45 0 71.5 17t40 46t16.5 65.5t3 77.5q0 51 -6 86t-23.5 59.5t-49.5 43t-83 41.5q-102 43 -164.5 88t-95.5 95t-43 106.5t-10 124.5q0 86 20.5 157.5t63.5 123.5t109.5 81t158.5 29q100 0 166 -32t104.5 -81t55 -108.5 t16.5 -114.5l-219 -51q0 78 -26.5 127t-104.5 49q-41 0 -64.5 -16.5t-38 -43t-18.5 -57.5t-4 -61q0 -37 4 -65t23.5 -52.5t58.5 -49t107 -51.5q94 -37 150 -78.5t85 -92t38 -112.5t9 -142q0 -96 -17.5 -173t-58.5 -131.5t-109.5 -84t-168.5 -29.5q-92 0 -158.5 26.5 t-109.5 73.5t-62.5 110.5t-19.5 135.5z" />
<glyph unicode="T" horiz-adv-x="696" d="M6 1219v206h682v-206h-229v-1219h-223v1219h-230z" />
<glyph unicode="U" horiz-adv-x="886" d="M98 342v1081h221v-1085q0 -55 28 -99t95 -44q68 0 96.5 46t28.5 111v1071h224v-1058q0 -186 -83 -281.5t-264 -95.5q-180 0 -263 91t-83 263z" />
<glyph unicode="V" horiz-adv-x="862" d="M29 1425h235l96 -585l66 -449h10l66 449l98 585h234l-273 -1425h-264z" />
<glyph unicode="W" horiz-adv-x="1251" d="M31 1425h241q16 -135 30.5 -266t29.5 -266q2 -18 8 -72.5t12 -115t11.5 -114.5t7.5 -73h8q14 80 26.5 159t24.5 159l105 589h188l102 -591q12 -80 25.5 -161t28.5 -161h8l33 324l57 589h244l-207 -1425h-230l-112 618q-10 59 -20.5 120t-20.5 120h-8l-43 -244 q-29 -154 -57.5 -307t-57.5 -307h-227z" />
<glyph unicode="X" horiz-adv-x="847" d="M12 0l289 745q-68 170 -134.5 339t-133.5 341h248q35 -109 69.5 -214t69.5 -214l8 2l135 426h250l-276 -680q74 -188 148.5 -373.5t148.5 -371.5h-248l-162 489h-4l-162 -489h-246z" />
<glyph unicode="Y" horiz-adv-x="808" d="M16 1425h234l88 -309l65 -246h9l67 252l80 303h234l-277 -835v-590h-221v590z" />
<glyph unicode="Z" horiz-adv-x="698" d="M45 0v201l379 1018h-363v206h596v-196l-378 -1020h376v-209h-610z" />
<glyph unicode="[" horiz-adv-x="481" d="M127 -209v1636h324v-149h-129v-1335h129v-152h-324z" />
<glyph unicode="\" horiz-adv-x="512" d="M10 1462h166l320 -1513h-164z" />
<glyph unicode="]" horiz-adv-x="481" d="M31 -59h129v1337h-129v149h321v-1638h-321v152z" />
<glyph unicode="^" d="M14 659q82 193 163 381.5t165 380.5h147l332 -766h-200l-117 293l-90 230l-101 -265q-25 -61 -50 -125.5t-48 -128.5h-201z" />
<glyph unicode="_" horiz-adv-x="1024" d="M0 -143h1024v-156h-1024v156z" />
<glyph unicode="`" horiz-adv-x="759" d="M205 1456l182 82l172 -362l-117 -64z" />
<glyph unicode="a" horiz-adv-x="788" d="M57 295q0 59 15.5 116.5t50.5 101.5t92 71.5t143 27.5h129v111q0 45 -21.5 70.5t-80.5 25.5q-31 0 -61.5 -20.5t-40.5 -73.5l-201 61q27 113 107.5 176.5t209.5 63.5q154 0 233 -69.5t79 -233.5v-723h-224v78l-6 2q-33 -47 -82 -69.5t-104 -22.5q-68 0 -114 24.5 t-73.5 66.5t-39 97t-11.5 119zM274 307q0 -53 28 -81.5t75 -28.5q53 0 81.5 33.5t28.5 91.5v124h-88q-47 0 -86 -30.5t-39 -108.5z" />
<glyph unicode="b" horiz-adv-x="788" d="M76 0v1487h221v-553h8q29 47 83 69.5t93 22.5q53 0 89 -11t60.5 -31.5t39 -48.5t26.5 -58q16 -47 22.5 -119t6.5 -152v-92q0 -74 -3 -143.5t-7 -122.5q-8 -80 -32 -130t-56.5 -79t-72.5 -40t-81 -11q-59 0 -101 20.5t-71 69.5q-2 0 -3 -1t-3 -1v-76h-219zM295 393 q0 -37 2 -71q0 -51 23.5 -86t74.5 -35q33 0 51.5 14t28.5 35q14 27 18.5 89t4.5 157q0 94 -2 162.5t-19 103.5q-10 25 -28.5 38t-53.5 13q-59 0 -84 -53q-14 -25 -14 -60q-1 -31 -1 -67v-36.5v-38.5q0 -41 -1 -89v-76z" />
<glyph unicode="c" horiz-adv-x="733" d="M68 498q0 49 2 101t6 99t10 88t16 66q31 78 101.5 127t189.5 49q154 0 226.5 -84t72.5 -231q-53 -6 -109.5 -12.5t-109.5 -14.5q0 72 -23.5 104.5t-62.5 32.5q-61 0 -84 -61q-6 -20 -11 -82t-5 -143v-74q0 -59 1 -115.5t11 -85.5q10 -33 30.5 -52.5t57.5 -19.5 q86 0 86 132q55 -10 110.5 -16.5t110.5 -16.5q-2 -143 -80.5 -222t-230.5 -79q-70 0 -121 16t-87 45t-57.5 65t-31.5 76q-6 25 -10 62t-5 79t-2 86t-1 81z" />
<glyph unicode="d" horiz-adv-x="798" d="M66 500q0 92 5 183t19 151q8 37 23.5 71.5t42 61t66.5 43t100 16.5q43 0 87 -17.5t74 -54.5h9v533h221v-1487h-219v76q-2 0 -3.5 1t-3.5 1q-29 -49 -72 -69.5t-102 -20.5q-41 0 -80.5 11t-72.5 40t-56.5 79t-31.5 130q-4 45 -5 113.5t-1 138.5zM293 496q0 -94 4 -157 t16 -89q10 -23 28.5 -36t51.5 -13q51 0 75 34.5t24 86.5q2 33 2 69.5v73.5v53q-1 34 -1 66v31.5v29.5q0 29 -1 53q0 49 -23 82t-76 33t-76 -49q-16 -33 -20 -101.5t-4 -166.5z" />
<glyph unicode="e" horiz-adv-x="770" d="M68 500q0 98 7 196.5t27 151.5q29 82 100.5 131t190.5 49q152 0 229.5 -84t77.5 -237v-252h-413q0 -57 1 -110.5t9 -82.5q20 -69 88 -69h2q82 0 92 116l221 -35q-8 -135 -88 -210.5t-227 -75.5q-72 0 -123 17.5t-87 46t-56.5 65.5t-30.5 73q-6 25 -10 62t-6 79t-3 86 t-1 83zM289 606h188v86q0 49 -17.5 88t-72.5 39q-59 0 -82 -59q-8 -18 -11 -58t-5 -96z" />
<glyph unicode="f" horiz-adv-x="524" d="M25 834v178h96v215q0 133 72.5 196.5t181.5 63.5h117v-203h-66q-39 0 -60.5 -24.5t-21.5 -63.5v-184h152v-178h-152v-834h-223v834h-96z" />
<glyph unicode="g" horiz-adv-x="802" d="M66 420v88q0 72 3 137.5t7 118.5q16 141 83.5 200.5t159.5 59.5q59 0 101.5 -20.5t71.5 -69.5q2 0 3 1t3 1v76h219v-1069q0 -158 -73 -253.5t-247 -95.5q-143 0 -223 72t-86 207q53 8 108.5 16.5t108.5 18.5q4 -109 96 -109q49 0 72 35t23 82v170h-7q-29 -47 -84 -68.5 t-94 -21.5q-59 0 -99 15.5t-65.5 42t-40 62.5t-22.5 79q-10 41 -13 101t-5 124zM295 516q0 -92 3 -157.5t17 -100.5q23 -51 82 -51q53 0 78 41q23 38 23 83v7v205v75.5t-2 71.5q0 51 -24 86t-75 35h-8q-27 0 -43 -13q-18 -14 -29 -36q-14 -27 -18 -89.5t-4 -156.5z" />
<glyph unicode="h" horiz-adv-x="800" d="M82 0v1487h221v-565h8q31 43 84.5 72.5t110.5 29.5q61 0 103 -20.5t66.5 -56.5t35 -85t10.5 -104v-758h-223v700q0 109 -97 109q-45 0 -72.5 -29.5t-27.5 -85.5v-694h-219z" />
<glyph unicode="i" horiz-adv-x="417" d="M96 0v1012h223v-1012h-223zM96 1210v215h223v-215h-223z" />
<glyph unicode="j" horiz-adv-x="411" d="M-33 -195h33q59 0 77.5 33t18.5 111v1065h223v-1120q0 -141 -74.5 -219t-236.5 -78h-41v208zM96 1210v215h223v-215h-223z" />
<glyph unicode="k" horiz-adv-x="819" d="M84 0v1485h219v-836h10l213 363h258l-254 -394l279 -618h-254q-45 104 -88 207.5t-88 208.5q-18 -35 -36.5 -68t-39.5 -67v-281h-219z" />
<glyph unicode="l" horiz-adv-x="454" d="M86 268v1219h223v-1186q0 -59 17.5 -85t64.5 -26h25v-202h-41q-74 0 -128 13t-90 46t-53.5 87t-17.5 134z" />
<glyph unicode="m" horiz-adv-x="1222" d="M92 0v1014h221v-92l9 -2q31 43 76.5 73.5t103.5 30.5q78 0 125 -31.5t69 -85.5q43 53 99.5 85t117.5 32t103.5 -19.5t68 -54.5t37 -82t11.5 -102v-766h-224v700q0 53 -23.5 81t-64.5 28t-68.5 -28.5t-29.5 -78.5v-702h-223v700q0 53 -23.5 81t-64.5 28t-70 -32t-29 -87 v-690h-221z" />
<glyph unicode="n" horiz-adv-x="798" d="M78 0v1012h221v-90h8q31 43 82 72.5t109 29.5q61 0 103 -19.5t67.5 -55.5t37 -83t11.5 -102v-764h-221v700q0 109 -93 109q-47 0 -75.5 -32t-28.5 -87v-690h-221z" />
<glyph unicode="o" horiz-adv-x="782" d="M68 427v71q0 49 2 101t6 99t10 88t16 66q29 78 102.5 127t192.5 49q82 0 138.5 -21.5t93.5 -58.5t54 -86t22 -106q8 -59 9 -131t1 -131v-54q0 -47 -3 -94t-7 -92q-10 -84 -44 -137.5t-80 -82t-99.5 -38.5t-104.5 -10q-72 0 -124 19.5t-88 52t-55.5 74.5t-27.5 89 q-4 27 -7 60.5t-5 70.5t-2 75zM287 463q0 -55 1 -106.5t9 -82.5q10 -35 32.5 -58t65.5 -23q33 0 56.5 19t31.5 48q2 8 5.5 31.5t5.5 57.5t3 73t1 78q0 72 -2 139.5t-11 101.5q-4 23 -14 37q-23 45 -76 45q-49 0 -73 -37q-14 -25 -21.5 -53t-10.5 -65t-3 -83v-106v-16z" />
<glyph unicode="p" horiz-adv-x="784" d="M70 -391v1405h217v-76l6 -4q29 51 73 71.5t101 20.5q41 0 81 -11t72.5 -40t56 -80t32.5 -131q4 -45 6 -112.5t2 -137.5q0 -90 -5 -183t-20 -153q-8 -37 -23.5 -70.5t-42 -60.5t-67.5 -43t-98 -16q-43 0 -87 15t-77 54h-6v-448h-221zM289 369q0 -35 1 -65t9 -46 q23 -57 88 -57q55 0 78 47q14 33 19 102.5t5 167.5q0 92 -4 155.5t-18 90.5q-17 47 -80 47q-49 0 -73.5 -34t-24.5 -87v-321z" />
<glyph unicode="q" horiz-adv-x="800" d="M68 463v43q0 72 3 137.5t7 118.5q8 80 32.5 130t58.5 79.5t73 41t80 11.5q59 0 101 -20.5t71 -71.5l6 4v76h219v-1405h-221v471h-9q-29 -47 -83 -69.5t-93 -22.5q-53 0 -89 12t-60.5 32.5t-39.5 48t-26 60.5q-18 57 -24 147.5t-6 176.5zM297 516q0 -92 3 -162.5 t17 -105.5q23 -49 82 -49q45 0 72 31.5t27 76.5q1 31 1 67v37.5v38.5q0 39 1 80v13v75.5t-2 69.5q0 53 -24 87t-75 34q-63 0 -80 -47q-14 -27 -18 -90.5t-4 -155.5z" />
<glyph unicode="r" horiz-adv-x="587" d="M102 0v1014h224v-113h4q39 78 92 101.5t127 23.5h20v-235q-16 2 -30.5 3t-28.5 1q-88 0 -136 -42t-48 -149v-604h-224z" />
<glyph unicode="s" horiz-adv-x="743" d="M57 276l219 33v-8q0 -50 24 -80q26 -33 73 -33q49 0 73.5 28t24.5 77q0 63 -22.5 89t-83.5 48q-68 25 -123.5 50.5t-93 60t-58 82t-20.5 114.5q0 123 78.5 207t232.5 84q160 0 232.5 -80t72.5 -215l-217 -28v8q1 49 -21 79q-24 32 -69 33q-53 0 -71.5 -30.5t-18.5 -61.5 q0 -41 19.5 -66.5t90.5 -50.5q76 -25 130.5 -51t89 -63t51 -87t16.5 -120q0 -66 -16.5 -121t-54 -97t-97 -65.5t-145.5 -23.5q-150 0 -231 73.5t-85 214.5z" />
<glyph unicode="t" horiz-adv-x="520" d="M27 840v174h100v256h213v-256h123v-174h-123v-527q0 -57 18.5 -82.5t75.5 -25.5h27v-205h-99q-70 0 -114.5 21.5t-72.5 56.5t-39 78t-11 86v598h-98z" />
<glyph unicode="u" horiz-adv-x="800" d="M80 250v764h223v-703q0 -59 23.5 -84.5t68.5 -25.5q41 0 73 31.5t32 86.5v695h219v-1014h-221v90q-2 0 -3 1t-6 1q-31 -45 -82 -73.5t-108 -28.5q-63 0 -105 19.5t-68 54t-36 83t-10 103.5z" />
<glyph unicode="v" horiz-adv-x="751" d="M10 1012h242q18 -102 36.5 -202.5t35.5 -203.5q12 -78 24 -153.5t27 -153.5h10l49 305l68 408h239l-239 -1012h-254q-59 256 -118.5 506t-119.5 506z" />
<glyph unicode="w" horiz-adv-x="1159" d="M20 1012h234l53 -363l49 -325h9l49 327l57 361h217l57 -359l58 -331h8l45 331l51 359h230l-209 -1012h-240l-51 262l-55 313h-9l-53 -307l-53 -268h-238z" />
<glyph unicode="x" horiz-adv-x="755" d="M10 0q59 129 122 258t122 258l-234 496h248l111 -299h4q29 76 54.5 150.5t54.5 148.5h243l-233 -496q61 -129 121.5 -258t119.5 -258h-243l-119 317h-6l-123 -317h-242z" />
<glyph unicode="y" horiz-adv-x="735" d="M8 1012h236l63 -375l55 -295h9l55 295l74 375h227l-293 -1168q-29 -113 -91 -176t-181 -63h-78v194h45q45 0 73.5 30t49.5 116l14 63z" />
<glyph unicode="z" horiz-adv-x="671" d="M53 0v201l318 614h-293v197h543v-187l-324 -618h324v-207h-568z" />
<glyph unicode="{" horiz-adv-x="501" d="M31 547v135q66 8 95.5 66.5t29.5 154.5v289q0 109 58 172t144 63h115v-153h-43q-35 0 -56.5 -38t-21.5 -97v-267q0 -109 -40 -170t-85 -81v-11q43 -16 84 -78.5t41 -173.5v-286q0 -61 21.5 -95t56.5 -34h43v-154h-115q-86 0 -144 63.5t-58 172.5v301q0 100 -30 156.5 t-95 64.5z" />
<glyph unicode="|" horiz-adv-x="481" d="M156 -332v1813h174v-1813h-174z" />
<glyph unicode="}" horiz-adv-x="501" d="M33 -57h43q35 0 56.5 33.5t21.5 95.5v286q0 111 41 173.5t84 78.5v11q-45 20 -85 81.5t-40 169.5v267q0 59 -21.5 97t-56.5 38h-43v153h117q86 0 143 -63.5t57 -171.5v-289q0 -96 30 -154.5t95 -66.5v-135q-66 -8 -95.5 -64.5t-29.5 -156.5v-301q0 -109 -57 -172.5 t-143 -63.5h-117v154z" />
<glyph unicode="~" d="M16 508q43 92 101.5 146.5t144.5 54.5q45 0 84 -16.5t75 -35t68.5 -34t65.5 -15.5q37 0 64.5 22.5t66.5 71.5l121 -71q-47 -98 -104.5 -150.5t-129.5 -52.5q-41 0 -79.5 15.5t-75.5 35t-74 34.5t-72 15q-39 0 -68.5 -19.5t-72.5 -74.5z" />
<glyph unicode="&#xa2;" d="M100 498q0 49 2 101t6.5 99t10.5 88t16 66q27 66 81 113t146 59v209h109v-207q129 -12 191.5 -95t62.5 -218q-53 -6 -109.5 -12.5t-109.5 -14.5q0 72 -23.5 104.5t-62.5 32.5q-61 0 -84 -61q-6 -20 -11.5 -82t-5.5 -143v-74q0 -59 1.5 -115.5t11.5 -85.5 q10 -33 30.5 -52.5t57.5 -19.5q86 0 86 132q55 -10 110.5 -16.5t110.5 -16.5q-2 -129 -67.5 -206t-188.5 -91v-232h-109v232q-113 10 -169 68.5t-74 129.5q-6 25 -10.5 62t-5.5 79t-2 86t-1 81z" />
<glyph unicode="&#xa3;" d="M61 0v186q29 49 48.5 91t33 87.5t22.5 97.5t15 122h-117v172h105q-10 51 -23.5 92t-26 81t-21.5 82t-9 93q0 76 24.5 137.5t68.5 105.5t105.5 67.5t135.5 23.5q162 0 254 -89t92 -247l-215 -49q0 78 -32 125t-97 47q-47 0 -81 -33t-34 -88q0 -37 9.5 -74t22.5 -78 t26.5 -89t23.5 -107h199v-172h-193q0 -123 -23.5 -210t-64.5 -173h428v-201h-676z" />
<glyph unicode="&#xa5;" d="M35 1425h227l80 -284q16 -72 33.5 -141.5t36.5 -139.5h10q18 72 34.5 141.5t35.5 141.5q18 72 36.5 141.5t38.5 140.5h226l-234 -723h170v-118h-203q-2 -10 -3 -22.5t-1 -22.5v-60h207v-121h-207v-358h-215v358h-201v121h201v60q0 10 -1 22t-3 23h-197v118h162z" />
<glyph unicode="&#xa8;" horiz-adv-x="724" d="M100 1163v215h193v-215h-193zM436 1163v215h193v-215h-193z" />
<glyph unicode="&#xa9;" horiz-adv-x="1439" d="M88 698q0 156 40 287t119 227.5t195.5 150.5t268.5 54q150 0 265.5 -54t195 -150.5t120.5 -227.5t41 -287q0 -154 -41 -283.5t-120.5 -226t-195 -150.5t-265.5 -54q-154 0 -269.5 54t-194.5 150.5t-119 226.5t-40 283zM233 698q0 -121 32 -226t92.5 -184t149.5 -125 t204 -46q119 0 209 46t149 125t89 184.5t30 225.5q0 121 -31 228.5t-91 187.5t-149 126t-206 46q-121 0 -211 -46t-149.5 -126t-88.5 -187.5t-29 -228.5zM481 483v404q0 111 66 171t168 60q98 0 165.5 -61.5t67.5 -159.5l-137 -35q-2 53 -26.5 85t-69.5 32 q-47 0 -69.5 -26.5t-22.5 -61.5v-418q0 -35 25.5 -59.5t64.5 -24.5q88 0 94 117l141 -29q-4 -111 -66.5 -169t-166.5 -58q-98 0 -166 58.5t-68 174.5z" />
<glyph unicode="&#xab;" horiz-adv-x="997" d="M92 492l230 395h210l-225 -395l225 -398h-210zM467 492l229 395h211l-225 -395l225 -398h-211z" />
<glyph unicode="&#xad;" horiz-adv-x="747" d="M100 479v193h570v-193h-570z" />
<glyph unicode="&#xae;" horiz-adv-x="995" d="M84 1004q0 102 26.5 189t79 150.5t129 99.5t179.5 36q98 0 174 -36t128 -99.5t79.5 -150.5t27.5 -189q0 -100 -27.5 -186.5t-79.5 -150t-128 -99.5t-174 -36q-102 0 -179 36t-129.5 99.5t-79 149.5t-26.5 187zM188 1008q0 -82 20.5 -151t59.5 -118t96.5 -76.5 t133.5 -27.5q80 0 137 28.5t94 79t54.5 119t17.5 146.5t-19.5 146.5t-57.5 119.5t-95 80.5t-131 29.5q-80 0 -137.5 -29.5t-96.5 -80.5t-57.5 -120t-18.5 -146zM350 719v559h152q156 0 155 -174q0 -45 -13 -84t-54 -64l88 -237h-117l-74 217h-30v-217h-107zM457 1032h39 q31 0 43 20.5t12 51.5q0 37 -13.5 57.5t-48.5 20.5h-32v-150z" />
<glyph unicode="&#xb4;" horiz-adv-x="759" d="M270 1176l174 362l183 -82l-238 -344z" />
<glyph unicode="&#xb8;" horiz-adv-x="882" d="M205 -385l35 92q41 -18 68.5 -23.5t51.5 -5.5q29 0 50.5 18.5t21.5 47.5q0 70 -92 68l-51 38l61 205l101 -2l-45 -145q51 -6 83.5 -23.5t52 -42t26.5 -52.5t7 -50q0 -23 -9 -51.5t-30.5 -53t-57.5 -42t-87 -17.5q-16 0 -72.5 5t-113.5 34z" />
<glyph unicode="&#xbb;" horiz-adv-x="997" d="M94 94l225 398l-225 395h213l228 -395l-228 -398h-213zM469 94l227 398l-227 395h213l227 -395l-227 -398h-213z" />
<glyph unicode="&#x2c6;" horiz-adv-x="765" d="M72 1169l270 306h129l258 -304l-88 -79l-240 192l-241 -192z" />
<glyph unicode="&#x2da;" horiz-adv-x="788" d="M227 1282q0 82 56.5 139.5t140.5 57.5t139 -57.5t55 -139.5t-55 -139.5t-139 -57.5t-140.5 57.5t-56.5 139.5zM342 1280q0 -35 23.5 -57.5t58.5 -22.5q33 0 56.5 22.5t23.5 57.5q0 33 -23.5 56.5t-56.5 23.5q-35 0 -58.5 -23.5t-23.5 -56.5z" />
<glyph unicode="&#x2dc;" horiz-adv-x="741" d="M47 1227q37 82 94.5 128t114.5 46q31 0 59.5 -11.5t56 -25.5t53.5 -25.5t50 -11.5q29 0 53.5 16.5t59.5 61.5q27 -16 52.5 -31.5t53.5 -32.5q-45 -94 -96 -136t-104 -42q-35 0 -65 11.5t-57.5 25.5t-53 25.5t-50.5 11.5t-53.5 -18.5t-58.5 -59.5z" />
<glyph unicode="&#x401;" horiz-adv-x="778" d="M106 0v1425h633v-208h-411v-388h358v-211h-358v-409h411v-209h-633zM162 1516v217h192v-217h-192zM498 1516v217h192v-217h-192z" />
<glyph unicode="&#x402;" horiz-adv-x="1011" d="M20 1219v206h746v-206h-315v-332h6q49 37 105 54t110 17q74 0 121 -24.5t75.5 -63.5t40 -88t11.5 -98v-383q0 -178 -66 -274.5t-236 -96.5h-45v185q66 0 94.5 42t28.5 117v349q0 55 -22 93t-88 38q-27 0 -64 -15.5t-71 -48.5v-690h-222v1219h-209z" />
<glyph unicode="&#x403;" horiz-adv-x="770" d="M106 0v1425h617v-208h-395v-1217h-222zM236 1577l315 248l131 -154l-367 -201z" />
<glyph unicode="&#x404;" horiz-adv-x="823" d="M94 340v709q0 80 18.5 151.5t60.5 123.5t107.5 83t159.5 31q86 0 149.5 -23.5t104.5 -65.5t62.5 -100.5t21.5 -128.5l-215 -43q-2 68 -33.5 110t-91.5 42q-37 0 -61.5 -16.5t-38.5 -41t-19.5 -54.5t-5.5 -56v-227h285v-216h-285v-282q0 -23 4.5 -47.5t17.5 -46 t36.5 -34.5t60.5 -13q119 0 125 157l221 -35q-8 -154 -93 -241.5t-245 -87.5q-178 0 -262 89t-84 263z" />
<glyph unicode="&#x405;" horiz-adv-x="841" d="M72 334l219 43q4 -80 30.5 -130t104.5 -50q45 0 71.5 17t40 46t16.5 65.5t3 77.5q0 51 -6 86t-23.5 59.5t-49.5 43t-83 41.5q-102 43 -164.5 88t-95.5 95t-43 106.5t-10 124.5q0 86 20.5 157.5t63.5 123.5t109.5 81t158.5 29q100 0 166 -32t104.5 -81t55 -108.5 t16.5 -114.5l-219 -51q0 78 -26.5 127t-104.5 49q-41 0 -64.5 -16.5t-38 -43t-18.5 -57.5t-4 -61q0 -37 4 -65t23.5 -52.5t58.5 -49t107 -51.5q94 -37 150 -78.5t85 -92t38 -112.5t9 -142q0 -96 -17.5 -173t-58.5 -131.5t-109.5 -84t-168.5 -29.5q-92 0 -158.5 26.5 t-109.5 73.5t-62.5 110.5t-19.5 135.5z" />
<glyph unicode="&#x406;" horiz-adv-x="444" d="M111 0v1425h223v-1425h-223z" />
<glyph unicode="&#x407;" horiz-adv-x="444" d="M-43 1530v215h193v-215h-193zM111 0v1425h223v-1425h-223zM293 1530v215h192v-215h-192z" />
<glyph unicode="&#x408;" horiz-adv-x="720" d="M-41 150l164 126q23 -35 60.5 -58t70.5 -23q68 0 97.5 46t29.5 105v1079h221v-1071q0 -176 -88 -271t-258 -95q-92 0 -169 40t-128 122z" />
<glyph unicode="&#x409;" horiz-adv-x="1300" d="M2 127q53 31 87 67.5t54.5 90t27.5 130.5t7 191v819h604v-546h95q111 0 183.5 -30t116.5 -86t62 -136t18 -178q0 -223 -92 -336t-284 -113h-320v1217h-186v-549q0 -172 -12.5 -289t-45 -197t-88 -130t-143.5 -89zM782 209h84q102 0 139 64.5t37 170.5q0 117 -39.5 170.5 t-140.5 53.5h-80v-459z" />
<glyph unicode="&#x40a;" horiz-adv-x="1312" d="M106 0v1425h220v-569h247v569h222v-569h94q111 0 183.5 -27.5t116.5 -81t62.5 -131t18.5 -178.5q0 -223 -92.5 -330.5t-286.5 -107.5h-318v645h-247v-645h-220zM795 209h82q12 0 28 4q92 8 121 67.5t29 153.5q0 117 -40 164t-143 47h-77v-436z" />
<glyph unicode="&#x40b;" horiz-adv-x="1009" d="M18 1219v206h742v-206h-309v-332h6q51 37 106 54t109 17q129 0 188.5 -74.5t59.5 -199.5v-684h-224v625q0 59 -24.5 94t-85.5 35q-29 0 -67 -16.5t-68 -47.5v-690h-222v1219h-211z" />
<glyph unicode="&#x40c;" horiz-adv-x="899" d="M106 0v1425h220v-602h45q74 0 121 43t71 154q4 18 17.5 76.5t27 125t25.5 125t16 76.5h207q-23 -109 -45.5 -214t-44.5 -212q-23 -104 -69 -168.5t-105 -89.5v-4q78 -29 121 -92t65 -168q27 -121 50.5 -238.5t50.5 -236.5h-222q-20 104 -40.5 208.5t-43.5 209.5 q-23 115 -68.5 160t-119.5 45h-59v-623h-220zM313 1577l316 248l131 -154l-367 -201z" />
<glyph unicode="&#x40e;" horiz-adv-x="796" d="M12 1423h215l176 -737h11l170 739h207l-287 -1101q-29 -117 -65 -184.5t-75.5 -102.5t-85 -45t-94.5 -12h-80v178h52q51 0 82.5 33.5t54.5 105.5q2 2 4 12t5 21.5t6 21.5t5 15zM113 1733h161q2 -23 13.5 -46.5t29 -44t40 -34t51.5 -13.5q31 0 54 13.5t39.5 34t26 44 t9.5 46.5h161q-4 -43 -22.5 -93.5t-54 -92.5t-88 -69.5t-125.5 -27.5q-80 0 -135.5 27.5t-90.5 69.5t-51 92.5t-18 93.5z" />
<glyph unicode="&#x40f;" horiz-adv-x="888" d="M106 0v1425h222v-1210h235v1210h221v-1425h-245v-272h-185v272h-248z" />
<glyph unicode="&#x410;" horiz-adv-x="864" d="M23 0q72 358 143.5 712.5t142.5 712.5h246l289 -1425h-226l-55 297h-262q-14 -74 -27.5 -148.5t-25.5 -148.5h-225zM334 504h194l-92 592h-10q-20 -147 -43 -294t-49 -298z" />
<glyph unicode="&#x411;" horiz-adv-x="843" d="M104 0v1425h623v-208h-403v-340h94q111 0 183.5 -30t116.5 -85t62.5 -135t18.5 -181q0 -223 -92.5 -334.5t-284.5 -111.5h-318zM324 209h84q16 0 28 6q90 8 120 70.5t30 156.5q0 117 -40 171.5t-143 54.5h-79v-459z" />
<glyph unicode="&#x412;" horiz-adv-x="880" d="M106 0v1425h312q188 0 273 -99t85 -288q0 -98 -33.5 -171.5t-117.5 -110.5v-11q94 -31 128.5 -116.5t34.5 -196.5q0 -223 -95 -327.5t-292 -104.5h-295zM328 207h88q53 0 84.5 19.5t49 52t23 78t5.5 94.5q0 100 -37 149t-129 49h-84v-442zM328 850h71q86 0 126 47t40 137 q0 98 -39 141.5t-129 43.5h-69v-369z" />
<glyph unicode="&#x413;" horiz-adv-x="770" d="M106 0v1425h617v-208h-395v-1217h-222z" />
<glyph unicode="&#x414;" horiz-adv-x="993" d="M16 184l84 19q57 61 78 142t25 214l24 866h637v-1224h90v-471h-186v270h-565v-270h-187v454zM338 201h307v1020h-227l-17 -660q-4 -123 -16 -212t-47 -148z" />
<glyph unicode="&#x415;" horiz-adv-x="778" d="M106 0v1425h633v-208h-411v-388h358v-211h-358v-409h411v-209h-633z" />
<glyph unicode="&#x416;" horiz-adv-x="1392" d="M41 0l98 475q23 104 66 168t121 92v4q-59 25 -105.5 89.5t-66.5 168.5q-23 106 -45.5 212t-45.5 214h205l88 -403q12 -57 33 -95t45.5 -60.5t52 -32t54.5 -9.5h45v602h221v-602h37q70 0 119 41t73 156q4 20 17.5 77.5t28 124t26.5 124t16 77.5h205q-20 -109 -43.5 -214 t-46.5 -212q-23 -104 -68 -168.5t-104 -89.5l-2 -2q78 -29 122 -93t66 -169l99 -475h-219l-84 418q-23 115 -70 160t-119 45h-53v-623h-221v623h-54q-82 0 -123.5 -46.5t-64.5 -158.5q-20 -104 -40.5 -209t-43.5 -209h-219z" />
<glyph unicode="&#x417;" horiz-adv-x="827" d="M55 1100q10 160 103.5 249t244.5 89q342 0 342 -381q0 -35 -4 -80t-17 -91t-36.5 -85t-62.5 -60v-6q37 -18 61.5 -52t38.5 -76t20.5 -90t6.5 -99q0 -223 -89.5 -326.5t-263.5 -103.5q-158 0 -250 88t-92 252l217 43q2 -94 35 -132t92 -38t91 53t32 170q0 219 -125 219 h-86v188h90q63 0 93 58.5t30 159.5q0 84 -34.5 130t-96.5 46q-66 0 -95.5 -49.5t-31.5 -122.5z" />
<glyph unicode="&#x418;" horiz-adv-x="931" d="M98 0v1425h215v-903h9l296 903h216v-1425h-218v893h-6l-299 -893h-213z" />
<glyph unicode="&#x419;" horiz-adv-x="931" d="M98 0v1425h215v-903h9l296 903h216v-1425h-218v893h-6l-299 -893h-213zM182 1749h162q2 -23 13.5 -46.5t28.5 -44t40 -33.5t51 -13q31 0 54.5 13t40 33.5t25.5 44t9 46.5h162q-4 -43 -22.5 -93t-54.5 -92t-88 -70t-126 -28q-80 0 -135 28t-90 70t-51.5 92t-18.5 93z" />
<glyph unicode="&#x41a;" horiz-adv-x="899" d="M106 0v1425h220v-602h45q74 0 121 43t71 154q4 18 17.5 76.5t27 125t25.5 125t16 76.5h207q-23 -109 -45.5 -214t-44.5 -212q-23 -104 -69 -168.5t-105 -89.5v-4q78 -29 121 -92t65 -168q27 -121 50.5 -238.5t50.5 -236.5h-222q-20 104 -40.5 208.5t-43.5 209.5 q-23 115 -68.5 160t-119.5 45h-59v-623h-220z" />
<glyph unicode="&#x41b;" horiz-adv-x="927" d="M10 127q53 31 87 67.5t54.5 90t27.5 130.5t7 191v819h631v-1425h-219v1217h-215v-549q0 -172 -12.5 -289t-45 -197t-88 -130t-143.5 -89z" />
<glyph unicode="&#x41c;" horiz-adv-x="1173" d="M100 0v1425h213l156 -405l113 -309h10l115 317l153 397h213v-1425h-221v821h-8l-90 -254l-101 -256h-133l-102 264l-88 250h-11v-825h-219z" />
<glyph unicode="&#x41d;" horiz-adv-x="907" d="M106 0v1425h220v-596h256v596h219v-1425h-219v623h-256v-623h-220z" />
<glyph unicode="&#x41e;" horiz-adv-x="880" d="M94 342v717q0 84 19.5 153.5t60.5 119.5t107.5 78t158.5 28q98 0 165 -26t107 -75t57 -118.5t17 -157.5v-696q0 -186 -84 -281.5t-264 -95.5t-262 91t-82 263zM315 338q0 -55 28 -99t95 -44q68 0 96.5 46t28.5 111v725q0 59 -25.5 106.5t-97.5 47.5q-39 0 -63.5 -17.5 t-37.5 -43t-18.5 -57.5t-5.5 -58v-717z" />
<glyph unicode="&#x41f;" horiz-adv-x="880" d="M106 0v1425h668v-1425h-221v1212h-225v-1212h-222z" />
<glyph unicode="&#x420;" horiz-adv-x="843" d="M106 0v1425h316q197 0 288 -102t91 -330q0 -100 -18.5 -182t-63.5 -140.5t-118 -91t-183 -32.5h-90v-547h-222zM328 758h78q102 0 142 58t40 175q0 104 -38 165t-140 61h-82v-459z" />
<glyph unicode="&#x421;" horiz-adv-x="831" d="M94 338v711q0 80 17.5 150.5t58.5 123.5t107.5 84t162.5 31q88 0 151.5 -24.5t105.5 -69t61.5 -104.5t19.5 -132l-215 -55q0 78 -29.5 127t-95.5 49q-39 0 -63.5 -16.5t-37.5 -42t-18.5 -55.5t-5.5 -56v-723q0 -20 4.5 -45t17.5 -46.5t36.5 -35.5t60.5 -14q123 0 125 176 q55 -10 110.5 -17.5t110.5 -15.5q-4 -162 -89 -256t-251 -94q-176 0 -260 89t-84 261z" />
<glyph unicode="&#x422;" horiz-adv-x="696" d="M6 1219v206h682v-206h-229v-1219h-223v1219h-230z" />
<glyph unicode="&#x423;" horiz-adv-x="796" d="M12 1423h215l176 -737h11l170 739h207l-287 -1101q-29 -117 -65 -184.5t-75.5 -102.5t-85 -45t-94.5 -12h-80v178h52q51 0 82.5 33.5t54.5 105.5q2 2 4 12t5 21.5t6 21.5t5 15z" />
<glyph unicode="&#x424;" horiz-adv-x="1134" d="M90 526v461q0 88 32 155.5t84 115t118.5 72t134.5 24.5v71h219l2 -71q68 -4 133.5 -29t117.5 -71t84 -113.5t32 -155.5v-506q0 -90 -33 -155.5t-85 -110.5t-118 -69.5t-133 -30.5v-113h-219v113h-2q-100 10 -170 43.5t-114 87t-63.5 125t-19.5 157.5zM299 459 q0 -39 14.5 -69t37 -50.5t51 -31.5t57.5 -13v879q-74 -10 -117 -51.5t-43 -118.5v-545zM678 1174l2 -879q27 4 55.5 16.5t52 33t38 49t14.5 65.5v545q0 78 -46 120.5t-116 49.5z" />
<glyph unicode="&#x425;" horiz-adv-x="847" d="M12 0l289 745q-68 170 -134.5 339t-133.5 341h248q35 -109 69.5 -214t69.5 -214l8 2l135 426h250l-276 -680q74 -188 148.5 -373.5t148.5 -371.5h-248l-162 489h-4l-162 -489h-246z" />
<glyph unicode="&#x426;" horiz-adv-x="913" d="M104 0v1425h222v-1218h247v1218h222v-1218h92v-477h-185v270h-598z" />
<glyph unicode="&#x427;" horiz-adv-x="878" d="M82 877v548h219v-520q0 -90 35 -120.5t100 -30.5q25 0 55.5 6t59.5 18v647h221v-1425h-221v582q-41 -12 -83 -17.5t-79 -5.5q-72 0 -128 16.5t-96 54.5t-61.5 98t-21.5 149z" />
<glyph unicode="&#x428;" horiz-adv-x="1298" d="M106 0v1425h222v-1218h211v1218h221v-1218h213v1218h219v-1425h-1086z" />
<glyph unicode="&#x429;" horiz-adv-x="1325" d="M104 0v1425h222v-1218h211v1218h221v-1218h213v1218h221v-1218h94v-477h-186v270h-996z" />
<glyph unicode="&#x42a;" horiz-adv-x="1054" d="M27 1217v208h510v-546h94q111 0 183.5 -30t116.5 -86t62.5 -136t18.5 -178q0 -223 -92.5 -336t-284.5 -113h-320v1217h-288zM537 211h84q102 0 139 63.5t37 169.5q0 117 -40 170.5t-141 53.5h-79v-457z" />
<glyph unicode="&#x42b;" horiz-adv-x="1243" d="M104 0v1425h220v-548h94q111 0 183.5 -30t116.5 -85t62.5 -135t18.5 -181q0 -223 -92.5 -334.5t-284.5 -111.5h-318zM324 209h84q102 0 140 65.5t38 167.5q0 117 -40 171.5t-143 54.5h-79v-459zM909 0v1425h221v-1425h-221z" />
<glyph unicode="&#x42c;" horiz-adv-x="843" d="M104 0v1425h220v-548h94q111 0 183.5 -30t116.5 -85t62.5 -135t18.5 -181q0 -223 -92.5 -334.5t-284.5 -111.5h-318zM324 209h84q102 0 140 65.5t38 167.5q0 117 -40 171.5t-143 54.5h-79v-459z" />
<glyph unicode="&#x42d;" horiz-adv-x="817" d="M49 317l219 35q6 -160 125 -159q37 0 60.5 15t37 38.5t17.5 51.5t4 50v270h-285v216h285v237q0 63 -24.5 110.5t-98.5 47.5q-59 0 -90 -43t-35 -121l-215 37q6 154 94 245t252 91q100 0 166 -31t103.5 -83t52 -121.5t14.5 -149.5v-701q0 -172 -80 -268t-260 -96 q-160 0 -247 88t-95 241z" />
<glyph unicode="&#x42e;" horiz-adv-x="1202" d="M106 0v1425h222v-596h121v228q0 84 18 153.5t57 119.5t101.5 78t150.5 28q94 0 157.5 -26t102.5 -75t55.5 -118.5t16.5 -157.5v-694q0 -186 -80 -281.5t-252 -95.5q-170 0 -248.5 91t-78.5 263v281h-121v-623h-222zM659 338q0 -55 26 -99t91 -44q66 0 92.5 46t26.5 111 v723q0 29 -5 56.5t-19.5 49t-37 35t-57.5 13.5q-37 0 -59.5 -17.5t-35.5 -43t-17.5 -57.5t-4.5 -58v-715z" />
<glyph unicode="&#x42f;" horiz-adv-x="897" d="M53 0l80 453q14 72 45 130t86 91q-98 41 -135 124t-37 199q0 211 101.5 319.5t277.5 108.5h326v-1425h-222v608h-57q-57 0 -105 -45t-69 -160l-68 -403h-223zM309 997q0 -104 50.5 -144t127.5 -40h88v404h-86q-100 0 -140 -60.5t-40 -159.5z" />
<glyph unicode="&#x430;" horiz-adv-x="788" d="M57 295q0 59 15.5 116.5t50.5 101.5t92 71.5t143 27.5h129v111q0 45 -21.5 70.5t-80.5 25.5q-31 0 -61.5 -20.5t-40.5 -73.5l-201 61q27 113 107.5 176.5t209.5 63.5q154 0 233 -69.5t79 -233.5v-723h-224v78l-6 2q-33 -47 -82 -69.5t-104 -22.5q-68 0 -114 24.5 t-73.5 66.5t-39 97t-11.5 119zM274 307q0 -53 28 -81.5t75 -28.5q53 0 81.5 33.5t28.5 91.5v124h-88q-47 0 -86 -30.5t-39 -108.5z" />
<glyph unicode="&#x431;" horiz-adv-x="778" d="M68 479v174q0 164 12 281t41 197.5t75 132t115 84.5q43 20 75 32.5t62.5 24.5t67.5 27.5t92 40.5l74 -158q-43 -25 -77 -40t-65.5 -28.5t-63.5 -28t-70 -34.5q-66 -35 -94.5 -103.5t-32.5 -173.5h2q35 37 77.5 50.5t69.5 13.5q113 0 171 -51.5t83 -120.5q10 -27 15 -65 t8.5 -82t4.5 -90t1 -91v-18q0 -57 -1 -98.5t-8 -96.5q-10 -84 -41.5 -137t-77.5 -83t-101.5 -41t-110.5 -11q-66 0 -114 17t-83 45t-56.5 65t-31.5 75q-12 51 -15 132t-3 159zM287 453q0 -61 1 -113.5t11 -81.5q18 -68 94 -68q31 0 56.5 23t33.5 55q8 31 10.5 81t2.5 116v47 q0 61 -2 107.5t-11 74.5q-10 35 -31.5 54.5t-58.5 19.5q-43 0 -74 -41q-8 -10 -14 -25.5t-9 -39t-5 -60.5t-4 -90v-59z" />
<glyph unicode="&#x432;" horiz-adv-x="804" d="M88 0v1012h291q174 0 257 -73t83 -210q0 -61 -25.5 -111.5t-79.5 -82.5l2 -3q66 -29 89.5 -88t23.5 -131q0 -162 -88 -237.5t-268 -75.5h-285zM311 199h76q43 0 67.5 10t39 28.5t18.5 42t4 52.5q0 53 -28.5 83.5t-100.5 30.5h-76v-247zM311 612h60q72 0 101.5 28t29.5 77 t-25.5 73.5t-89.5 28.5h-76v-207z" />
<glyph unicode="&#x433;" horiz-adv-x="694" d="M88 0v1014h571v-199h-348v-815h-223z" />
<glyph unicode="&#x434;" horiz-adv-x="915" d="M35 184l84 19q20 27 33.5 54.5t22.5 61t13.5 76.5t6.5 103l16 516h577v-815h86v-435h-184v236h-469v-236h-186v420zM342 199h225v616h-161l-11 -305q-4 -125 -16 -194.5t-37 -116.5z" />
<glyph unicode="&#x435;" horiz-adv-x="770" d="M68 500q0 98 7 196.5t27 151.5q29 82 100.5 131t190.5 49q152 0 229.5 -84t77.5 -237v-252h-413q0 -57 1 -110.5t9 -82.5q20 -70 90 -69q82 0 92 116l221 -35q-8 -135 -88 -210.5t-227 -75.5q-72 0 -123 17.5t-87 46t-56.5 65.5t-30.5 73q-6 25 -10 62t-6 79t-3 86t-1 83 zM289 606h188v86q0 49 -17.5 88t-72.5 39q-59 0 -82 -59q-8 -18 -11 -58t-5 -96z" />
<glyph unicode="&#x436;" horiz-adv-x="1220" d="M31 0q20 82 39.5 163t38.5 163q18 74 51 127t96 71v4q-51 16 -86 66.5t-51 122.5q-18 74 -35.5 147.5t-34.5 147.5h207l61 -267q12 -49 28.5 -78.5t36 -45t42 -19.5t45.5 -4h31v412h221v-412h31q37 0 62.5 9t44 30.5t30.5 57.5t24 87l52 230h206q-16 -74 -33.5 -147.5 t-35.5 -147.5q-16 -72 -51 -122t-88 -67v-4q63 -20 97 -73.5t52 -124.5q18 -82 38.5 -163t39.5 -163h-217q-12 66 -25.5 129.5t-27.5 128.5q-10 51 -24.5 82t-33 47t-42 22.5t-54.5 6.5h-45v-416h-221v416h-45q-33 0 -56.5 -6.5t-42 -23.5t-32 -48t-23.5 -80 q-12 -66 -26.5 -129t-26.5 -129h-217z" />
<glyph unicode="&#x437;" horiz-adv-x="745" d="M37 258l215 33q6 -109 100 -109q41 0 69 31t28 90q0 66 -23 101.5t-76 35.5h-76v166h80q94 0 95 121q0 47 -25 75.5t-72 28.5t-72.5 -31.5t-29.5 -78.5l-203 39q12 123 93 192.5t220 69.5q154 0 234 -72.5t80 -216.5q0 -59 -21.5 -119.5t-87.5 -87.5v-4q63 -27 85 -81 t22 -140q0 -160 -89 -235.5t-237 -75.5q-141 0 -220 69.5t-89 198.5z" />
<glyph unicode="&#x438;" horiz-adv-x="860" d="M84 0v1012h217v-609h4l248 609h221v-1012h-221v586h-4l-250 -586h-215z" />
<glyph unicode="&#x439;" horiz-adv-x="860" d="M84 0v1012h217v-609h4l248 609h221v-1012h-221v586h-4l-250 -586h-215zM139 1407h162q2 -23 13.5 -46.5t28.5 -44t40 -33.5t51 -13q31 0 54.5 13t40 33.5t25.5 44t9 46.5h162q-4 -43 -22.5 -93t-54.5 -92t-88 -70t-126 -28q-80 0 -135 28t-90 70t-51.5 92t-18.5 93z" />
<glyph unicode="&#x43a;" horiz-adv-x="806" d="M78 0v1010h221v-412h45q23 0 45.5 4t43 19.5t36.5 45t27 78.5l61 267h209q-18 -74 -35.5 -147.5t-34.5 -147.5q-16 -72 -52 -122t-89 -67v-4q68 -16 99.5 -70.5t50.5 -127.5l79 -326h-217l-55 258q-10 51 -23.5 82t-32 47t-42 22.5t-54.5 6.5h-61v-416h-221z" />
<glyph unicode="&#x43b;" horiz-adv-x="823" d="M6 137q43 23 71.5 45.5t46 52t26 71.5t8.5 106v602h583v-1014h-221v815h-162v-407q0 -106 -18 -181t-54 -125.5t-88.5 -82t-119.5 -52.5z" />
<glyph unicode="&#x43c;" horiz-adv-x="1056" d="M86 0v1014h211l139 -297l90 -193h4l91 195l141 295h209v-1014h-226v541h-4l-61 -144l-86 -182h-131l-86 180l-62 135h-6v-530h-223z" />
<glyph unicode="&#x43d;" horiz-adv-x="817" d="M88 0v1012h223v-408h195v408h223v-1012h-223v428h-195v-428h-223z" />
<glyph unicode="&#x43e;" horiz-adv-x="782" d="M68 427v71q0 49 2 101t6 99t10 88t16 66q29 78 102.5 127t192.5 49q82 0 138.5 -21.5t93.5 -58.5t54 -86t22 -106q8 -59 9 -131t1 -131v-54q0 -47 -3 -94t-7 -92q-10 -84 -44 -137.5t-80 -82t-99.5 -38.5t-104.5 -10q-72 0 -124 19.5t-88 52t-55.5 74.5t-27.5 89 q-4 27 -7 60.5t-5 70.5t-2 75zM287 463q0 -55 1 -106.5t9 -82.5q10 -35 32.5 -58t65.5 -23q33 0 56.5 19t31.5 48q2 8 5.5 31.5t5.5 57.5t3 73t1 78q0 72 -2 139.5t-11 101.5q-4 23 -14 37q-23 45 -76 45q-49 0 -73 -37q-14 -25 -21.5 -53t-10.5 -65t-3 -83v-106v-16z" />
<glyph unicode="&#x43f;" d="M96 0v1014h639v-1014h-223v817h-195v-817h-221z" />
<glyph unicode="&#x440;" horiz-adv-x="784" d="M70 -391v1405h217v-76l6 -4q29 51 73 71.5t101 20.5q41 0 81 -11t72.5 -40t56 -80t32.5 -131q4 -45 6 -112.5t2 -137.5q0 -90 -5 -183t-20 -153q-8 -37 -23.5 -70.5t-42 -60.5t-67.5 -43t-98 -16q-43 0 -87 15t-77 54h-6v-448h-221zM289 369q0 -35 1 -65t9 -46 q23 -57 88 -57q55 0 78 47q14 33 19 102.5t5 167.5q0 92 -4 155.5t-18 90.5q-17 47 -80 47q-49 0 -73.5 -34t-24.5 -87v-321z" />
<glyph unicode="&#x441;" horiz-adv-x="733" d="M68 498q0 49 2 101t6 99t10 88t16 66q31 78 101.5 127t189.5 49q154 0 226.5 -84t72.5 -231q-53 -6 -109.5 -12.5t-109.5 -14.5q0 72 -23.5 104.5t-62.5 32.5q-61 0 -84 -61q-6 -20 -11 -82t-5 -143v-74q0 -59 1 -115.5t11 -85.5q10 -33 30.5 -52.5t57.5 -19.5 q86 0 86 132q55 -10 110.5 -16.5t110.5 -16.5q-2 -143 -80.5 -222t-230.5 -79q-70 0 -121 16t-87 45t-57.5 65t-31.5 76q-6 25 -10 62t-5 79t-2 86t-1 81z" />
<glyph unicode="&#x442;" horiz-adv-x="626" d="M-2 815v199h631v-199h-205v-815h-223v815h-203z" />
<glyph unicode="&#x443;" horiz-adv-x="735" d="M8 1012h236l63 -375l55 -295h9l55 295l74 375h227l-293 -1168q-29 -113 -91 -176t-181 -63h-78v194h45q45 0 73.5 30t49.5 116l14 63z" />
<glyph unicode="&#x444;" horiz-adv-x="1054" d="M70 498q0 98 7 177t27 140q31 92 116 144.5t202 64.5v391h209v-391q143 -8 221 -70.5t104 -146.5q16 -51 21.5 -134t5.5 -171v-17q0 -57 -1 -100t-7 -94q-16 -119 -78 -187q-45 -51 -111.5 -78.5t-150.5 -37.5v-379h-213v377q-152 16 -229.5 75.5t-106.5 171.5 q-10 53 -13 123t-3 142zM289 412q4 -57 6 -99.5t12 -66.5q12 -31 42 -46.5t71 -19.5q0 158 1 325t1 324q-88 -16 -115 -81q-10 -25 -14 -78.5t-4 -114.5v-143zM631 180q98 12 119 86q12 37 14 90.5t2 124.5q0 84 -1 163t-11 108q-10 33 -40 53t-83 24v-649z" />
<glyph unicode="&#x445;" horiz-adv-x="755" d="M10 0q59 129 122 258t122 258l-234 496h248l111 -299h4q29 76 54.5 150.5t54.5 148.5h243l-233 -496q61 -129 121.5 -258t119.5 -258h-243l-119 317h-6l-123 -317h-242z" />
<glyph unicode="&#x446;" horiz-adv-x="843" d="M90 0v1014h223v-811h193v811h223v-811h90v-439h-186v236h-543z" />
<glyph unicode="&#x447;" horiz-adv-x="772" d="M53 598v414h223v-344q0 -102 89 -103q49 0 108 33v414h219v-1012h-221v412q-25 -12 -53.5 -21.5t-56 -15.5t-51 -9.5t-38.5 -3.5q-104 0 -161.5 58.5t-57.5 177.5z" />
<glyph unicode="&#x448;" horiz-adv-x="1198" d="M92 0v1014h221v-811h174v811h224v-811h178v811h219v-1014h-1016z" />
<glyph unicode="&#x449;" horiz-adv-x="1241" d="M92 0v1014h221v-811h174v811h224v-811h176v811h221v-811h92v-420h-184v217h-924z" />
<glyph unicode="&#x44a;" horiz-adv-x="954" d="M23 815v199h481v-373h65q100 0 168 -22.5t109 -64.5t57.5 -100.5t16.5 -127.5q0 -162 -84 -244t-265 -82h-292v815h-256zM504 199h59q82 0 109.5 37.5t27.5 87.5q0 53 -30.5 85.5t-108.5 32.5h-57v-243z" />
<glyph unicode="&#x44b;" horiz-adv-x="1132" d="M88 0v1014h225v-373h66q100 0 167.5 -22.5t108.5 -64.5t57.5 -100.5t16.5 -127.5q0 -326 -348 -326h-293zM313 199h60q82 0 109.5 37.5t27.5 87.5q0 53 -30.5 85.5t-108.5 32.5h-58v-243zM811 0v1014h225v-1014h-225z" />
<glyph unicode="&#x44c;" horiz-adv-x="757" d="M86 0v1014h225v-373h68q100 0 167.5 -22.5t108.5 -64.5t57.5 -100.5t16.5 -127.5q0 -326 -348 -326h-295zM311 199h62q82 0 108.5 37.5t26.5 87.5q0 53 -31 85.5t-108 32.5h-58v-243z" />
<glyph unicode="&#x44d;" horiz-adv-x="735" d="M43 274l221 27q6 -111 86 -111q43 0 63.5 26t28.5 67q6 25 7.5 62.5t1.5 76.5h-238v180h236q0 94 -13 141q-23 82 -84 82q-39 0 -62.5 -29.5t-25.5 -88.5q-53 6 -108.5 13t-108.5 15q8 137 89 215t231 78q119 0 181 -49t91 -127q10 -25 16.5 -66t9.5 -88t4 -99t1 -101 q0 -37 -1 -81t-2 -86t-5.5 -79t-10.5 -62q-10 -41 -31.5 -76.5t-57.5 -64.5t-87 -45t-121 -16q-147 0 -227 75.5t-84 210.5z" />
<glyph unicode="&#x44e;" horiz-adv-x="1087" d="M78 0v1012h223v-408h98q2 78 10.5 142.5t20.5 101.5q29 80 98.5 128t184.5 48q127 0 193.5 -53t88.5 -135q8 -33 13.5 -75t7.5 -88t3 -92t1 -87v-17q0 -55 -2 -112.5t-8 -110.5q-10 -84 -42 -137.5t-76 -82t-96.5 -38.5t-101.5 -10q-66 0 -112.5 17t-80.5 45t-54.5 65 t-30.5 77q-10 39 -13.5 107t-3.5 131h-98v-428h-223zM610 463q0 -86 3 -141.5t20 -85.5q23 -43 78 -43q31 0 54 19t30 48q2 8 5 31.5t4 56.5t2 72t1 78q0 72 -1 138t-9 101q-8 33 -26.5 58.5t-59.5 25.5q-33 0 -54.5 -21.5t-31.5 -49.5q-8 -27 -10.5 -88.5t-4.5 -145.5v-53z " />
<glyph unicode="&#x44f;" horiz-adv-x="792" d="M43 0l76 311q10 47 32.5 88t63.5 66q-82 33 -112.5 96.5t-30.5 138.5q0 150 86 232t245 82h316v-1014h-223v408h-54q-49 0 -80.5 -33t-52.5 -131l-51 -244h-215zM289 694q0 -53 36.5 -79.5t98.5 -26.5h72v233h-68q-66 0 -102.5 -31.5t-36.5 -95.5z" />
<glyph unicode="&#x451;" horiz-adv-x="770" d="M68 500q0 98 7 196.5t27 151.5q29 82 100.5 131t190.5 49q152 0 229.5 -84t77.5 -237v-252h-413q0 -57 1 -110.5t9 -82.5q20 -70 90 -69q82 0 92 116l221 -35q-8 -135 -88 -210.5t-227 -75.5q-72 0 -123 17.5t-87 46t-56.5 65.5t-30.5 73q-6 25 -10 62t-6 79t-3 86t-1 83 zM131 1178v215h193v-215h-193zM289 606h188v86q0 49 -17.5 88t-72.5 39q-59 0 -82 -59q-8 -18 -11 -58t-5 -96zM467 1178v215h192v-215h-192z" />
<glyph unicode="&#x452;" horiz-adv-x="821" d="M0 1159v141h90v187h221v-187h262v-141h-262v-252q4 0 5 -1t3 -1q27 41 83.5 73t115.5 32q78 0 130 -37t73 -115q6 -27 10 -71t6 -96t3 -107.5t1 -102.5v-80q0 -82 -4 -162.5t-20 -127.5q-27 -86 -91.5 -132.5t-168.5 -50.5h-43l-6 176q33 2 53 11.5t30.5 20.5t13.5 24.5 t3 23.5q2 20 5 76.5t3 122.5q0 100 -1 189.5t-7 146.5q-4 37 -23.5 52t-44.5 15q-63 0 -96 -38.5t-33 -110.5v-637h-221v1159h-90z" />
<glyph unicode="&#x453;" horiz-adv-x="694" d="M88 0v1014h571v-199h-348v-815h-223zM217 1176l174 362l182 -82l-237 -344z" />
<glyph unicode="&#x454;" horiz-adv-x="757" d="M84 500q0 49 2 100t6 98t10.5 88t16.5 66q29 78 101.5 127t191.5 49q147 0 225 -73.5t82 -209.5l-221 -22q-4 51 -29 75.5t-59 24.5q-66 0 -88 -61q-10 -20 -12.5 -61.5t-4.5 -100.5h240v-178h-242q0 -47 2 -91t10 -69q10 -33 31 -51t60 -18q41 0 64.5 26.5t27.5 77.5 l223 -31q-6 -129 -90 -203.5t-232 -74.5q-70 0 -121 17.5t-86.5 45t-57 64.5t-32.5 75q-6 25 -10 62t-5 79t-2 86t-1 83z" />
<glyph unicode="&#x455;" horiz-adv-x="743" d="M57 276l219 33q-2 -55 24 -88t73 -33q49 0 73.5 28t24.5 77q0 63 -22.5 89t-83.5 48q-68 25 -123.5 50.5t-93 60t-58 82t-20.5 114.5q0 123 78.5 207t232.5 84q160 0 232.5 -80t72.5 -215l-217 -28q2 55 -21.5 87.5t-68.5 32.5q-53 0 -71.5 -30.5t-18.5 -61.5 q0 -41 19.5 -66.5t90.5 -50.5q76 -25 130.5 -51t89 -63t51 -87t16.5 -120q0 -66 -16.5 -121t-54 -97t-97 -65.5t-145.5 -23.5q-150 0 -231 73.5t-85 214.5z" />
<glyph unicode="&#x456;" horiz-adv-x="417" d="M96 0v1012h223v-1012h-223zM96 1210v215h223v-215h-223z" />
<glyph unicode="&#x457;" horiz-adv-x="417" d="M-53 1163v215h192v-215h-192zM96 0v1012h223v-1012h-223zM283 1163v215h192v-215h-192z" />
<glyph unicode="&#x458;" horiz-adv-x="411" d="M-33 -195h33q59 0 77.5 33t18.5 111v1065h223v-1120q0 -141 -74.5 -219t-236.5 -78h-41v208zM96 1210v215h223v-215h-223z" />
<glyph unicode="&#x459;" horiz-adv-x="1175" d="M10 137q43 23 72 45.5t46 52t25.5 71.5t8.5 106v600h559v-371h67q100 0 168 -23.5t109 -64.5t57.5 -99.5t16.5 -127.5q0 -326 -348 -326h-295v815h-134v-407q0 -106 -19 -181t-55 -125.5t-88.5 -82t-117.5 -52.5zM721 199h61q78 0 108 36.5t30 88.5q0 53 -32 85.5 t-110 32.5h-57v-243z" />
<glyph unicode="&#x45a;" horiz-adv-x="1181" d="M92 0v1014h225v-383h183v383h227v-381h66q100 0 167.5 -22.5t108.5 -62.5t57.5 -96.5t16.5 -125.5q0 -326 -348 -326h-295v442h-183v-442h-225zM727 199h59q82 0 110 37.5t28 87.5q0 53 -31 80.5t-109 27.5h-57v-233z" />
<glyph unicode="&#x45b;" horiz-adv-x="819" d="M0 1159v141h92v187h221v-187h260v-141h-260v-250l9 -2q31 43 84 73t110 30q63 0 104.5 -20.5t66 -56.5t34.5 -85t10 -105v-743h-223v686q0 109 -94 109q-47 0 -74 -30t-27 -85v-680h-221v1159h-92z" />
<glyph unicode="&#x45c;" horiz-adv-x="806" d="M78 0v1010h221v-412h45q23 0 45.5 4t43 19.5t36.5 45t27 78.5l61 267h209q-18 -74 -35.5 -147.5t-34.5 -147.5q-16 -72 -52 -122t-89 -67v-4q68 -16 99.5 -70.5t50.5 -127.5l79 -326h-217l-55 258q-10 51 -23.5 82t-32 47t-42 22.5t-54.5 6.5h-61v-416h-221zM315 1176 l174 362l183 -82l-238 -344z" />
<glyph unicode="&#x45e;" horiz-adv-x="735" d="M8 1012h236l63 -375l55 -295h9l55 295l74 375h227l-293 -1168q-29 -113 -91 -176t-181 -63h-78v194h45q45 0 73.5 30t49.5 116l14 63zM78 1407h162q2 -23 13 -46.5t28.5 -44t40 -33.5t51.5 -13q31 0 54.5 13t39.5 33.5t25.5 44t9.5 46.5h162q-4 -43 -22.5 -93t-54.5 -92 t-88.5 -70t-125.5 -28q-80 0 -135.5 28t-90 70t-51 92t-18.5 93z" />
<glyph unicode="&#x45f;" horiz-adv-x="823" d="M96 0v1012h223v-809h191v809h221v-1012h-225v-256h-189v256h-221z" />
<glyph unicode="&#x490;" horiz-adv-x="770" d="M106 0v1425h435v234h182v-442h-395v-1217h-222z" />
<glyph unicode="&#x491;" horiz-adv-x="694" d="M88 0v1012h391v235h180v-432h-350v-815h-221z" />
<glyph unicode="&#x4d9;" horiz-adv-x="770" d="M70 309v252h413q0 57 -2 110.5t-12 82.5q-20 70 -88 69q-82 0 -90 -116l-221 34q8 135 88 212t229 77q70 0 122 -17.5t87 -46t56.5 -65.5t31.5 -76q6 -25 10 -61.5t6 -78.5t3.5 -86t1.5 -81q0 -49 -2.5 -100t-6.5 -98.5t-10 -86t-16 -65.5q-31 -82 -101.5 -131 t-189.5 -49q-154 0 -231.5 84t-77.5 237zM293 324q0 -49 17.5 -88t72.5 -39q59 0 82 59q8 18 11 58t5 96h-188v-86z" />
<glyph unicode="&#x2000;" horiz-adv-x="912" />
<glyph unicode="&#x2001;" horiz-adv-x="1825" />
<glyph unicode="&#x2002;" horiz-adv-x="912" />
<glyph unicode="&#x2003;" horiz-adv-x="1825" />
<glyph unicode="&#x2004;" horiz-adv-x="608" />
<glyph unicode="&#x2005;" horiz-adv-x="456" />
<glyph unicode="&#x2006;" horiz-adv-x="304" />
<glyph unicode="&#x2007;" horiz-adv-x="304" />
<glyph unicode="&#x2008;" horiz-adv-x="228" />
<glyph unicode="&#x2009;" horiz-adv-x="365" />
<glyph unicode="&#x200a;" horiz-adv-x="101" />
<glyph unicode="&#x2010;" horiz-adv-x="747" d="M100 479v193h570v-193h-570z" />
<glyph unicode="&#x2011;" horiz-adv-x="747" d="M100 479v193h570v-193h-570z" />
<glyph unicode="&#x2012;" horiz-adv-x="747" d="M100 479v193h570v-193h-570z" />
<glyph unicode="&#x2013;" horiz-adv-x="1024" d="M41 461v188h942v-188h-942z" />
<glyph unicode="&#x2014;" horiz-adv-x="2048" d="M41 461v188h1966v-188h-1966z" />
<glyph unicode="&#x2018;" horiz-adv-x="536" d="M145 924v252l113 272h123l-59 -268h51v-256h-228z" />
<glyph unicode="&#x2019;" horiz-adv-x="487" d="M135 926l58 266h-52v258h230v-252l-113 -272h-123z" />
<glyph unicode="&#x201a;" horiz-adv-x="438" d="M98 -281l60 269h-54v258h230v-252l-113 -275h-123z" />
<glyph unicode="&#x201c;" horiz-adv-x="706" d="M92 924v252l115 272h123l-60 -268h52v-256h-230zM387 924v252l113 272h123l-58 -268h51v-256h-229z" />
<glyph unicode="&#x201d;" horiz-adv-x="706" d="M94 926l60 266h-54v258h230v-252l-113 -272h-123zM389 926l57 266h-51v258h230v-252l-113 -272h-123z" />
<glyph unicode="&#x201e;" horiz-adv-x="720" d="M94 -279l60 269h-54v256h230v-252l-113 -273h-123zM389 -279l57 269h-51v256h230v-252l-113 -273h-123z" />
<glyph unicode="&#x2026;" horiz-adv-x="1439" d="M100 0v248h230v-248h-230zM608 0v248h228v-248h-228zM1116 0v248h227v-248h-227z" />
<glyph unicode="&#x202f;" horiz-adv-x="365" />
<glyph unicode="&#x2039;" horiz-adv-x="630" d="M96 492l230 395h211l-226 -395l226 -398h-211z" />
<glyph unicode="&#x203a;" horiz-adv-x="630" d="M94 94l225 398l-225 395h213l228 -395l-228 -398h-213z" />
<glyph unicode="&#x205f;" horiz-adv-x="456" />
<glyph unicode="&#x20ac;" d="M39 545v121h76v102h-76v123h76v158q0 80 18.5 151.5t60.5 123.5t107.5 83t159.5 31q174 0 257 -91.5t81 -234.5l-215 -37q-4 72 -35 113t-90 41q-37 0 -61.5 -16.5t-39 -41t-19.5 -54.5t-5 -56v-170h276v-123h-276v-102h276v-121h-276v-209q0 -23 4 -47.5t17.5 -46 t37 -34.5t60.5 -13q117 0 125 157l221 -30q-6 -154 -92 -244t-246 -90q-178 0 -262 89t-84 263v205h-76z" />
<glyph unicode="&#x2122;" horiz-adv-x="1433" d="M84 1282v143h498v-143h-172v-668h-154v668h-172zM662 612v811h141q29 -61 54.5 -122.5t51.5 -122.5l80 -177q18 43 36.5 87.5t39.5 87.5l104 247h144v-811h-152v445h-6q-16 -45 -32.5 -90t-35.5 -90q-10 -29 -24 -60t-27 -59h-100q-14 31 -27.5 61.5t-25.5 61.5 q-18 45 -35 89t-35 87h-6v-445h-145z" />
<glyph unicode="&#x25fc;" horiz-adv-x="1013" d="M0 0v1014h1014v-1014h-1014z" />
</font>
</defs>
</svg>
